Форум русскоязычного сообщества Ubuntu


Следите за новостями русскоязычного сообщества Ubuntu в Twitter-ленте @ubuntu_ru_loco

Автор Тема: Подскажите хорошую программу для записи видео  (Прочитано 933 раз)

0 Пользователей и 1 Гость просматривают эту тему.

Оффлайн cunningfox

  • Автор темы
  • Участник
  • *
  • Сообщений: 148
  • Системный чайник
    • Просмотр профиля
    • Создание сайтов в Крыму
Старый ноут с 16.04, 2 гига оперативки, 2 ядра по 2.16, видео встроенное, пример 256.

Надо с него иногда записывать видео, что то легкое и чтоб по весу ролики не весили тонны.

ТС не появлялся на Форуме более полугода по состоянию на 14/07/2019 (последняя явка: 18/04/2018). Модератором раздела принято решение закрыть тему.
--zg_nico
« Последнее редактирование: 14 Июль 2019, 05:36:47 от zg_nico »
< ?php echo "Изучаю ubuntu"; ? >

Оффлайн mmgfs

  • Участник
  • *
  • Сообщений: 166
  • Ubuntu 14.04.5
    • Просмотр профиля
Я использую Simple Screen Recorder. Не жалуюсь.
Милости просим к нам в EVE Online. Я просто без ума от неё.

Оффлайн mahinist

  • Модератор форума
  • Старожил
  • *
  • Сообщений: 3365
  • Ubuntu-20.04, Archlinux, Gentoo
    • Просмотр профиля
ffmpeg и сразу с пережимом видео , к примеру -
ffmpeg -f x11grab -s 1360x768 -r 25 -i :0.0 -vcodec libx264 -b 700K screenvideo.mkv
31-регион

Оффлайн firerat

  • Активист
  • *
  • Сообщений: 254
  • Audaces Fortuna Juvat
    • Просмотр профиля
mahinist, а в случае двух мониторов, как записать видео с одного из них?
Ubuntu 20.04 Unity

Оффлайн ecc83

  • Старожил
  • *
  • Сообщений: 2084
  • Lubuntu 16.04 LTS
    • Просмотр профиля
mahinist, а в случае двух мониторов, как записать видео с одного из них?

Там в команде указан конкретный дисплей, с которого производить запись.

Оффлайн www777

  • СуперМодератор
  • Старожил
  • *
  • Сообщений: 2735
    • Просмотр профиля
mahinist, А запись звука одновременно с выхода микрофона и с динамиков? Как можно через ffmpeg?

Оффлайн mahinist

  • Модератор форума
  • Старожил
  • *
  • Сообщений: 3365
  • Ubuntu-20.04, Archlinux, Gentoo
    • Просмотр профиля
запись звука одновременно с выхода микрофона и с динамиков

С установленной пульсой пишу так (разрешение экрана - 1280x720 ставьте своё) -

ffmpeg -f alsa -ac 2 -i pulse -f x11grab -s 1280x720 -r 25 -i :0.0 -acodec pcm_s16le -threads 0  -vcodec libx264 -crf 0 -preset ultrafast video.mkv
или с  автоматическим определением разрешения экрана -

ffmpeg -f alsa -ac 2 -i pulse -f x11grab -s `xrandr | grep '*' | awk '{print $1}'` -r 25 -i :0.0 -acodec pcm_s16le -threads 0  -vcodec libx264 -crf 0 -preset ultrafast video.mkv
31-регион

Оффлайн ecc83

  • Старожил
  • *
  • Сообщений: 2084
  • Lubuntu 16.04 LTS
    • Просмотр профиля
С установленной пульсой пишу так

А если без пульсы?

Оффлайн www777

  • СуперМодератор
  • Старожил
  • *
  • Сообщений: 2735
    • Просмотр профиля
mahinist, Ошибка Unknown input format: 'alsa'

(Нажмите, чтобы показать/скрыть)
« Последнее редактирование: 01 Сентябрь 2017, 10:33:57 от www777 »

Оффлайн VladimirIP

  • Любитель
  • *
  • Сообщений: 55
    • Просмотр профиля
А запись звука одновременно с выхода микрофона и с динамиков?
Вроде бы через loopback в pulse можно
загрузить модуль
pactl load-module module-loopback adjust_time=0 latency_msec=1 >> /dev/null
звук с микрофона пойдёт в колонки
запись звука avconv -f pulse -i default , или вместо default глянуть pactl list | grep monitor
потом не забыть выгрузить выгрузить
pactl unload-module module-loopback

Оффлайн www777

  • СуперМодератор
  • Старожил
  • *
  • Сообщений: 2735
    • Просмотр профиля
Цитировать
звук с микрофона пойдёт в колонки
Ну что это будет за карнавал? Как системой пользоваться в таком виде?

Оффлайн VladimirIP

  • Любитель
  • *
  • Сообщений: 55
    • Просмотр профиля
Цитировать
звук с микрофона пойдёт в колонки
Ну что это будет за карнавал? Как системой пользоваться в таком виде?
Модуль же потом выгружается, это же только на время записи, тс надо скринкасты писать, как я понял.

Оффлайн mahinist

  • Модератор форума
  • Старожил
  • *
  • Сообщений: 3365
  • Ubuntu-20.04, Archlinux, Gentoo
    • Просмотр профиля
У меня здесь пульсы нет , пишу так -

ffmpeg -f alsa -ac 2 -i hw:0  -f x11grab -s `xrandr | grep '*' | awk '{print $1}'` -r 25 -i :0.0 -acodec pcm_s16le -threads 0  -vcodec libx264 -crf 0 -preset ultrafast video.mkv
hw:0 - звуковая карта , смотрим -
arecord -l
Лог записи -
$ ffmpeg -f alsa -ac 2 -i hw:0  -f x11grab -s `xrandr | grep '*' | awk '{print $1}'` -r 25 -i :0.0 -acodec pcm_s16le -threads 0  -vcodec libx264 -crf 0 -preset ultrafast video.mkv
ffmpeg version 3.3.3 Copyright (c) 2000-2017 the FFmpeg developers
  built with gcc 7.1.1 (GCC) 20170630
  configuration: --prefix=/usr --disable-debug --disable-static --disable-stripping --enable-avisynth --enable-avresample --enable-fontconfig --enable-gmp --enable-gnutls --enable-gpl --enable-ladspa --enable-libass --enable-libbluray --enable-libfreetype --enable-libfribidi --enable-libgsm --enable-libiec61883 --enable-libmodplug --enable-libmp3lame --enable-libopencore_amrnb --enable-libopencore_amrwb --enable-libopenjpeg --enable-libopus --enable-libpulse --enable-libschroedinger --enable-libsoxr --enable-libspeex --enable-libssh --enable-libtheora --enable-libv4l2 --enable-libvidstab --enable-libvorbis --enable-libvpx --enable-libwebp --enable-libx264 --enable-libx265 --enable-libxcb --enable-libxvid --enable-shared --enable-version3
  libavutil      55. 58.100 / 55. 58.100
  libavcodec     57. 89.100 / 57. 89.100
  libavformat    57. 71.100 / 57. 71.100
  libavdevice    57.  6.100 / 57.  6.100
  libavfilter     6. 82.100 /  6. 82.100
  libavresample   3.  5.  0 /  3.  5.  0
  libswscale      4.  6.100 /  4.  6.100
  libswresample   2.  7.100 /  2.  7.100
  libpostproc    54.  5.100 / 54.  5.100
Guessed Channel Layout for Input Stream #0.0 : stereo
Input #0, alsa, from 'hw:0':
  Duration: N/A, start: 1504284457.372472, bitrate: 1536 kb/s
    Stream #0:0: Audio: pcm_s16le, 48000 Hz, stereo, s16, 1536 kb/s
[x11grab @ 0x55a9602ff0e0] Stream #0: not enough frames to estimate rate; consider increasing probesize
Input #1, x11grab, from ':0.0':
  Duration: N/A, start: 1504284457.413308, bitrate: N/A
    Stream #1:0: Video: rawvideo (BGR[0] / 0x524742), bgr0, 1360x768, 25 fps, 1000k tbr, 1000k tbn, 1000k tbc
Stream mapping:
  Stream #1:0 -> #0:0 (rawvideo (native) -> h264 (libx264))
  Stream #0:0 -> #0:1 (pcm_s16le (native) -> pcm_s16le (native))
Press [q] to stop, [?] for help
No pixel format specified, yuv444p for H.264 encoding chosen.
Use -pix_fmt yuv420p for compatibility with outdated media players.
[libx264 @ 0x55a960309e20] using cpu capabilities: MMX2 SSE2Fast SSSE3 SSE4.2
[libx264 @ 0x55a960309e20] profile High 4:4:4 Predictive, level 3.2, 4:4:4 8-bit
[libx264 @ 0x55a960309e20] 264 - core 148 r2795 aaa9aa8 - H.264/MPEG-4 AVC codec - Copyleft 2003-2017 - http://www.videolan.org/x264.html - options: cabac=0 ref=1 deblock=0:0:0 analyse=0:0 me=dia subme=0 psy=0 mixed_ref=0 me_range=16 chroma_me=1 trellis=0 8x8dct=0 cqm=0 deadzone=21,11 fast_pskip=0 chroma_qp_offset=0 threads=12 lookahead_threads=2 sliced_threads=0 nr=0 decimate=1 interlaced=0 bluray_compat=0 constrained_intra=0 bframes=0 weightp=0 keyint=250 keyint_min=25 scenecut=0 intra_refresh=0 rc=cqp mbtree=0 qp=0
Output #0, matroska, to 'video.mkv':
  Metadata:
    encoder         : Lavf57.71.100
    Stream #0:0: Video: h264 (libx264) (H264 / 0x34363248), yuv444p(progressive), 1360x768, q=-1--1, 25 fps, 1k tbn, 25 tbc
    Metadata:
      encoder         : Lavc57.89.100 libx264
    Side data:
      cpb: bitrate max/min/avg: 0/0/0 buffer size: 0 vbv_delay: -1
    Stream #0:1: Audio: pcm_s16le ([1][0][0][0] / 0x0001), 48000 Hz, stereo, s16, 1536 kb/s
    Metadata:
      encoder         : Lavc57.89.100 pcm_s16le
[alsa @ 0x55a9602ee0e0] Thread message queue blocking; consider raising the thread_queue_size option (current value: 8)
frame=  463 fps= 25 q=-1.0 Lsize=    6615kB time=00:00:18.48 bitrate=2932.2kbits/s speed=0.999x   
video:3230kB audio:3378kB subtitle:0kB other streams:0kB global headers:0kB muxing overhead: 0.108256%
[libx264 @ 0x55a960309e20] frame I:2     Avg QP: 0.00  size:854431
[libx264 @ 0x55a960309e20] frame P:461   Avg QP: 0.00  size:  3466
[libx264 @ 0x55a960309e20] mb I  I16..4: 100.0%  0.0%  0.0%
[libx264 @ 0x55a960309e20] mb P  I16..4:  5.2%  0.0%  0.0%  P16..4:  0.1%  0.0%  0.0%  0.0%  0.0%    skip:94.7%
[libx264 @ 0x55a960309e20] coded y,u,v intra: 8.4% 7.2% 7.3% inter: 0.1% 0.1% 0.1%
[libx264 @ 0x55a960309e20] i16 v,h,dc,p: 94%  6%  0%  0%
[libx264 @ 0x55a960309e20] kb/s:1428.32
Exiting normally, received signal 2.
« Последнее редактирование: 01 Сентябрь 2017, 20:13:32 от mahinist »
31-регион

Оффлайн ReNzRv

  • Старожил
  • *
  • Сообщений: 2628
    • Просмотр профиля
(Нажмите, чтобы показать/скрыть)

Оффлайн mahinist

  • Модератор форума
  • Старожил
  • *
  • Сообщений: 3365
  • Ubuntu-20.04, Archlinux, Gentoo
    • Просмотр профиля
Вот с пульсой -
ffmpeg -f alsa -ac 2 -i pulse -f x11grab -s `xrandr | grep '*' | awk '{print $1}'` -r 25 -i :0.0 -acodec pcm_s16le -threads 0  -vcodec libx264 -crf 0 -preset ultrafast video.mkv

Лог -
┌─( v ) - ( 3.16.0-77-generic ) - ( ~ )
└─> ffmpeg -f alsa -ac 2 -i pulse -f x11grab -s `xrandr | grep '*' | awk '{print $1}'` -r 25 -i :0.0 -acodec pcm_s16le -threads 0  -vcodec libx264 -crf 0 -preset ultrafast video.mkv
ffmpeg version 3.3.3 Copyright (c) 2000-2017 the FFmpeg developers
  built with gcc 4.8 (Ubuntu 4.8.4-2ubuntu1~14.04.3)
  configuration: --extra-libs=-ldl --prefix=/opt/ffmpeg --mandir=/usr/share/man --enable-avresample --disable-debug --enable-nonfree --enable-gpl --enable-version3 --enable-libopencore-amrnb --enable-libopencore-amrwb --disable-decoder=amrnb --disable-decoder=amrwb --enable-libpulse --enable-libfreetype --enable-gnutls --disable-ffserver --enable-libx264 --enable-libx265 --enable-libfdk-aac --enable-libvorbis --enable-libtheora --enable-libmp3lame --enable-libopus --enable-libvpx --enable-libspeex --enable-libass --enable-avisynth --enable-libsoxr --enable-libxvid --enable-libvidstab --enable-libwavpack --enable-nvenc --enable-libzimg
  libavutil      55. 58.100 / 55. 58.100
  libavcodec     57. 89.100 / 57. 89.100
  libavformat    57. 71.100 / 57. 71.100
  libavdevice    57.  6.100 / 57.  6.100
  libavfilter     6. 82.100 /  6. 82.100
  libavresample   3.  5.  0 /  3.  5.  0
  libswscale      4.  6.100 /  4.  6.100
  libswresample   2.  7.100 /  2.  7.100
  libpostproc    54.  5.100 / 54.  5.100
Guessed Channel Layout for Input Stream #0.0 : stereo
Input #0, alsa, from 'pulse':
  Duration: N/A, start: 1504274184.693673, bitrate: 1536 kb/s
    Stream #0:0: Audio: pcm_s16le, 48000 Hz, stereo, s16, 1536 kb/s
[x11grab @ 0xab79340] Stream #0: not enough frames to estimate rate; consider increasing probesize
Input #1, x11grab, from ':0.0':
  Duration: N/A, start: 1504274184.833983, bitrate: N/A
    Stream #1:0: Video: rawvideo (BGR[0] / 0x524742), bgr0, 1360x768, 25 fps, 1000k tbr, 1000k tbn, 1000k tbc
Stream mapping:
  Stream #1:0 -> #0:0 (rawvideo (native) -> h264 (libx264))
  Stream #0:0 -> #0:1 (pcm_s16le (native) -> pcm_s16le (native))
Press [q] to stop, [?] for help
[swscaler @ 0xab905c0] Warning: data is not aligned! This can lead to a speedloss
No pixel format specified, yuv444p for H.264 encoding chosen.
Use -pix_fmt yuv420p for compatibility with outdated media players.
[libx264 @ 0xab82ea0] using cpu capabilities: MMX2 SSE2Fast SSSE3 SSE4.2
[libx264 @ 0xab82ea0] profile High 4:4:4 Predictive, level 3.2, 4:4:4 8-bit
[libx264 @ 0xab82ea0] 264 - core 148 r2795 aaa9aa8 - H.264/MPEG-4 AVC codec - Copyleft 2003-2017 - http://www.videolan.org/x264.html - options: cabac=0 ref=1 deblock=0:0:0 analyse=0:0 me=dia subme=0 psy=0 mixed_ref=0 me_range=16 chroma_me=1 trellis=0 8x8dct=0 cqm=0 deadzone=21,11 fast_pskip=0 chroma_qp_offset=0 threads=12 lookahead_threads=2 sliced_threads=0 nr=0 decimate=1 interlaced=0 bluray_compat=0 constrained_intra=0 bframes=0 weightp=0 keyint=250 keyint_min=25 scenecut=0 intra_refresh=0 rc=cqp mbtree=0 qp=0
[alsa @ 0xab6a020] Thread message queue blocking; consider raising the thread_queue_size option (current value: 8)
Output #0, matroska, to 'video.mkv':
  Metadata:
    encoder         : Lavf57.71.100
    Stream #0:0: Video: h264 (libx264) (H264 / 0x34363248), yuv444p(progressive), 1360x768, q=-1--1, 25 fps, 1k tbn, 25 tbc
    Metadata:
      encoder         : Lavc57.89.100 libx264
    Side data:
      cpb: bitrate max/min/avg: 0/0/0 buffer size: 0 vbv_delay: -1
    Stream #0:1: Audio: pcm_s16le ([1][0][0][0] / 0x0001), 48000 Hz, stereo, s16, 1536 kb/s
    Metadata:
      encoder         : Lavc57.89.100 pcm_s16le
frame=  745 fps= 25 q=-1.0 Lsize=    9053kB time=00:00:29.76 bitrate=2491.9kbits/s speed=   1x   
video:3416kB audio:5481kB subtitle:0kB other streams:0kB global headers:0kB muxing overhead: 1.754312%
[libx264 @ 0xab82ea0] frame I:3     Avg QP: 0.00  size:469333
[libx264 @ 0xab82ea0] frame P:742   Avg QP: 0.00  size:  2816
[libx264 @ 0xab82ea0] mb I  I16..4: 100.0%  0.0%  0.0%
[libx264 @ 0xab82ea0] mb P  I16..4:  8.1%  0.0%  0.0%  P16..4:  0.1%  0.0%  0.0%  0.0%  0.0%    skip:91.8%
[libx264 @ 0xab82ea0] coded y,u,v intra: 4.1% 7.9% 11.4% inter: 0.0% 0.0% 0.0%
[libx264 @ 0xab82ea0] i16 v,h,dc,p: 97%  3%  0%  0%
[libx264 @ 0xab82ea0] kb/s:938.89
Exiting normally, received signal 2.
┌─( v ) - ( 3.16.0-77-generic ) - ( ~ )
└─>

Ubuntu 14.04  uname -a
┌─( v ) - ( 3.16.0-77-generic ) - ( ~ )
└─> uname -a
Linux v-52 3.16.0-77-generic #99~14.04.1-Ubuntu SMP Tue Jun 28 19:18:41 UTC 2016 i686 i686 i686 GNU/Linux
┌─( v ) - ( 3.16.0-77-generic ) - ( ~ )

┌─( v ) - ( 3.16.0-77-generic ) - ( ~ )
└─> xrandr | grep '*' | awk '{print $1}'
1360x768
┌─( v ) - ( 3.16.0-77-generic ) - ( ~ )

« Последнее редактирование: 01 Сентябрь 2017, 20:11:40 от mahinist »
31-регион

 

Страница сгенерирована за 0.22 секунд. Запросов: 22.