Форум русскоязычного сообщества Ubuntu


Получить помощь и пообщаться с другими пользователями Ubuntu можно
на irc канале #ubuntu-ru в сети Freenode
и в Jabber конференции ubuntu@conference.jabber.ru

Автор Тема: Как пофиксить сборку в Kdenlive после обновления Kubuntu 15 до 16.04?  (Прочитано 801 раз)

0 Пользователей и 1 Гость просматривают эту тему.

Оффлайн Roboteck

  • Автор темы
  • Новичок
  • *
  • Сообщений: 23
    • Просмотр профиля
После того, как я обновился до Kubuntu 16.04, изменились видео, получающиеся при сборке (рендеринге).

Вот параметры исходных видео:
Stream #0:0: Video: h264 (High) (H264 / 0x34363248), yuv420p(tv, bt709), 1280x800 [SAR 1:1 DAR 8:5], 517 kb/s, 24 fps, 24 tbr, 24 tbn, 48 tbcЭто скринкасты и некоторые я записывал до обновления, а некоторые после, но любые в итоге собираются теперь криво.

Вот параметры рендеринга:
f=mp4 hq=1 acodec=aac ab=%audiobitrate+'k' ar=48000 pix_fmt=yuv420p vcodec=libx264 minrate=0 vb=%bitrate+'k' g=250 bf=3 b_strategy=1 subcmp=2 cmp=2 coder=1 flags=+loop flags2=dct8x8 qmax=51 subq=7 qmin=10 qcomp=0.6 qdiff=4 trellis=1 aspect=%dar pass=%passes fps=24

До обновления системы видео получалось таким:
- разрешение как у оригинала (1280х800)
- частота кадров как у оригинала 24 fps
- звук был сплошным без пробелов
- звук воспроизводился синхронно с видео
Stream #0:1(eng): Video: h264 (Baseline) (avc1 / 0x31637661), yuv420p(tv), 1280x800 [SAR 1:1 DAR 8:5], 1455 kb/s, 24 fps, 24 tbr, 24 tbn, 48 tbc (default)
После обновления видео стало таким:
- разрешение поменялось на 720x576
- частота кадров стала 25 вместо 24
- в звуке появились маленькие пробелы
- звук стал опаздывать
Stream #0:0(und): Video: h264 (High) (avc1 / 0x31637661), yuv420p(tv, bt709/unknown/bt709), 720x576 [SAR 32:25 DAR 8:5], 365 kb/s, 25 fps, 25 tbr, 12800 tbn, 50 tbc (default)
Я пробовал добавить "width=1280 height=800 fps=24/1" в параметры рендеринга, но это пофиксило только разрешение, частота кадров и проблемы со звуком остались

Stream #0:0(und): Video: h264 (High) (avc1 / 0x31637661), yuv420p(tv, bt709/unknown/bt709), 1280x800 [SAR 1:1 DAR 8:5], 724 kb/s, 25 fps, 25 tbr, 12800 tbn, 50 tbc (default)

Как пофиксить звук и частоту кадров?

Оффлайн skybour

  • Старожил
  • *
  • Сообщений: 2224
    • Просмотр профиля
Попробуй потереть конфиг в домашнем каталоге пользователя.

Оффлайн Roboteck

  • Автор темы
  • Новичок
  • *
  • Сообщений: 23
    • Просмотр профиля
Попробуй потереть конфиг в домашнем каталоге пользователя.
1. Удалил kdenlive через synaptic - полное удаление
2. Удалил следующие файлы:
/home/roma/.local/share/stalefiles/kdenlive
/home/roma/.local/share/kdenlive
/home/roma/.kde/data/stalefiles/kdenlive
/usr/share/menu/kdenlive
/usr/share/doc/HTML/en/kdenlive
/usr/share/doc/kdenlive
/usr/share/mlt/kdenlive
/usr/share/kxmlgui5/kdenlive
/usr/share/kdenlive
3. Установил kdenlive

Не помогло, то же самое

Пробовал еще сменить язык на английский, тоже не помогло

Оффлайн skybour

  • Старожил
  • *
  • Сообщений: 2224
    • Просмотр профиля
У меня два варианта:
 -- либо там действительно что-то криво работает, тогда либо ищи баг-репорт с подтверждением, либо сам пиши;
 -- если версия обновилась, возможно какие-то параметры уже работают иначе, тогда читай документацию.

Оффлайн Roboteck

  • Автор темы
  • Новичок
  • *
  • Сообщений: 23
    • Просмотр профиля
Спасибо за ответы!

Решилось обновлением kdenlive до 16.04.0 версии

 

Страница сгенерирована за 0.055 секунд. Запросов: 24.