Форум русскоязычного сообщества Ubuntu


Хотите сделать посильный вклад в развитие Ubuntu и русскоязычного сообщества?
Помогите нам с документацией!

Автор Тема: ffmpeg man  (Прочитано 820 раз)

0 Пользователей и 1 Гость просматривают эту тему.

Оффлайн Maxsib

  • Автор темы
  • Новичок
  • *
  • Сообщений: 12
  • gentoo-openrc/xmonad
    • Просмотр профиля
ffmpeg man
« : 18 Декабрь 2017, 13:06:16 »
Здравствуйте!Люди добрые, подскажите, пожалуйста команду для кодирования видео через ffmpeg из 4к в avi 720p. Либо в другой формат для телека. Буду весьма признателен

Оффлайн ALiEN175

  • Старожил
  • *
  • Сообщений: 1966
  • X-9000SC
    • Просмотр профиля
Re: ffmpeg man
« Ответ #1 : 18 Декабрь 2017, 15:15:59 »
ffmpeg -i source.avi -s 1280x720 out.avi
M5A78L-M LX3 : AMD FX-4330 : 16 Gb RAM : AMD Radeon R7 260x
Samsung N150 : Intel Atom N450 : 2 Gb RAM : Intel GMA 3150

Оффлайн Maxsib

  • Автор темы
  • Новичок
  • *
  • Сообщений: 12
  • gentoo-openrc/xmonad
    • Просмотр профиля
Re: ffmpeg man
« Ответ #2 : 18 Декабрь 2017, 15:53:52 »
Извиняюсь, не сказал. Файлы снятые в режиме 4к это формат mp4, кодек h265, по-моему

Оффлайн ARTGALGANO

  • Заслуженный пользователь
  • Старожил
  • *
  • Сообщений: 1709
    • Просмотр профиля
Re: ffmpeg man
« Ответ #3 : 18 Декабрь 2017, 15:56:35 »
Maxsib, данные исходного видео покажите
ffmpeg -i video_file

Оффлайн Maxsib

  • Автор темы
  • Новичок
  • *
  • Сообщений: 12
  • gentoo-openrc/xmonad
    • Просмотр профиля
Re: ffmpeg man
« Ответ #4 : 19 Декабрь 2017, 00:11:45 »
Input #0, mov,mp4,m4a,3gp,3g2,mj2, from 'V71217-155144.mp4':
  Metadata:
    major_brand     : mp42
    minor_version   : 0
    compatible_brands: isommp42
    creation_time   : 2017-12-17T08:53:23.000000Z
    com.android.version: 6.0
  Duration: 00:01:37.28, start: 0.000000, bitrate: 42445 kb/s
    Stream #0:0(eng): Video: hevc (Main) (hvc1 / 0x31637668), yuv420p(tv), 3840x2160, 42355 kb/s, SAR 1:1 DAR 16:9, 29.52 fps, 29.58 tbr, 90k tbn, 90k tbc (default)
    Metadata:
      creation_time   : 2017-12-17T08:53:23.000000Z
      handler_name    : VideoHandle
    Stream #0:1(eng): Audio: aac (LC) (mp4a / 0x6134706D), 48000 Hz, stereo, fltp, 127 kb/s (default)
    Metadata:
      creation_time   : 2017-12-17T08:53:23.000000Z
      handler_name    : SoundHandle

Оффлайн xradio

  • Новичок
  • *
  • Сообщений: 41
    • Просмотр профиля
Re: ffmpeg man
« Ответ #5 : 20 Декабрь 2017, 15:37:30 »
Maxsib, что за целевой 'выкрутас' рекодировать в avi? Никаких проблем mp4 в mp4!
« Последнее редактирование: 20 Декабрь 2017, 15:40:19 от xradio »

Оффлайн Maxsib

  • Автор темы
  • Новичок
  • *
  • Сообщений: 12
  • gentoo-openrc/xmonad
    • Просмотр профиля
Re: ffmpeg man
« Ответ #6 : 21 Декабрь 2017, 00:25:24 »
Чтобы телек увидел.
Блеснул бы кто-нибудь знаниями, совершенно нет времени изучать.

Оффлайн ALiEN175

  • Старожил
  • *
  • Сообщений: 1966
  • X-9000SC
    • Просмотр профиля
Re: ffmpeg man
« Ответ #7 : 21 Декабрь 2017, 01:37:15 »
ffmpeg -i source.avi -s 1280x720 out.avi
не работает?  :o
M5A78L-M LX3 : AMD FX-4330 : 16 Gb RAM : AMD Radeon R7 260x
Samsung N150 : Intel Atom N450 : 2 Gb RAM : Intel GMA 3150

Оффлайн xradio

  • Новичок
  • *
  • Сообщений: 41
    • Просмотр профиля
Re: ffmpeg man
« Ответ #8 : 21 Декабрь 2017, 04:45:44 »
Maxsib, такого быть не может, чтобы телек не увидел mp4! А с avi можно и рассинхрон заполучить...

Оффлайн ARTGALGANO

  • Заслуженный пользователь
  • Старожил
  • *
  • Сообщений: 1709
    • Просмотр профиля
Re: ffmpeg man
« Ответ #9 : 21 Декабрь 2017, 09:24:55 »
Maxsib, телек читает мкв (h264)?


ffmpeg -i videofile -c:v libx264 -preset slow -crf 18 -vf scale=-2:720  -c:a copy -f matroska video.mkv

Оффлайн Maxsib

  • Автор темы
  • Новичок
  • *
  • Сообщений: 12
  • gentoo-openrc/xmonad
    • Просмотр профиля
Re: ffmpeg man
« Ответ #10 : 21 Декабрь 2017, 16:07:37 »
Вот спасибо, доберусь до компа только когда-нибудь..

Оффлайн peregrine

  • FSM
  • СуперМодератор
  • Старожил
  • *
  • Сообщений: 7070
  • Gentoo x64 Ubuntu 16.04.1 x64
    • Просмотр профиля
Re: ffmpeg man
« Ответ #11 : 21 Декабрь 2017, 18:26:20 »
Maxsib, модель телека озвучили бы, там скорее всего какой-то параметр h264 ему не нравится, поэтому он и не показывает.

Оффлайн Maxsib

  • Автор темы
  • Новичок
  • *
  • Сообщений: 12
  • gentoo-openrc/xmonad
    • Просмотр профиля
Re: ffmpeg man
« Ответ #12 : 22 Декабрь 2017, 02:05:36 »
Artgalgano, спасибо, в мкв пережал, посмотрю позже на тв.

Пользователь добавил сообщение 22 Декабрь 2017, 03:52:53:
Artgalgano, я извиняюсь за назойливость, а в фулл эйч ди можно просто поменять 720 на 1080, или какие-то еще опции изменить?

Пользователь добавил сообщение 22 Декабрь 2017, 04:01:23:
Я не подумал просто, снимал племянницу на празднике на телефон. А по-моему,у них телевизор 1080р.
« Последнее редактирование: 22 Декабрь 2017, 04:01:23 от Maxsib »

Оффлайн ARTGALGANO

  • Заслуженный пользователь
  • Старожил
  • *
  • Сообщений: 1709
    • Просмотр профиля
Re: ffmpeg man
« Ответ #13 : 22 Декабрь 2017, 08:13:03 »
Maxsib, да, можете просто изменить на 1080



 

Страница сгенерирована за 0.073 секунд. Запросов: 24.